Warum Windows eigentlich gar nicht so schlecht ist …

… zeigt sich immer wieder, z. B. bei OSS zum abgewöhnen, sprich, ffmpeg.
wusel@brick:~$ ffmpeg -i death/Desktop/18062008244.mp4 -acodec aac -ab 96 -ar 22050 temp.wav
[...]
[aac @ 0xb7dd29a8]FAAD library: cannot resolve faacDecGetErrorMessage in libfaad.so.0!
[aac @ 0xb7dd29a8]FAAD library: cannot resolve faacDecGetErrorMessage in libfaad.so.0!
Input #0, mov,mp4,m4a,3gp,3g2,mj2, from 'death/Desktop/18062008244.mp4':
Duration: 00:03:09.4, start: 0.000000, bitrate: 3071 kb/s
Stream #0.0(und): Video: mpeg4, yuv420p, 640x480, 30000.00 fps(r)
Stream #0.1(und): Audio: aac
File 'temp.wav' already exists. Overwrite ? [y/N] y
Output #0, wav, to 'temp.wav':
Stream #0.0: Audio: aac, 22050 Hz, stereo, 0 kb/s
Stream mapping:
Stream #0.1 -> #0.0
[aac @ 0xb7dd29a8]FAAD library: cannot resolve faacDecGetErrorMessage in libfaad.so.0!
Error while opening codec for input stream #0.1
wusel@brick:~$

Langsam auf kleiner Flamme rösten …